Lotus In Fish Ponds 2

VideoHive Lotus In Fish Ponds 2 8366056
Stock Footage \ Nature
Format \ Duration \ Stream \ Variable \ Settings \ Pixels \ Constant \ Overall



Stock Footage - Lotus In Fish Ponds 2 8366056
by badbad @ VideoHive

Stock Footage \ Nature

Lotus In Fish Ponds 2
4K Video Down Scale to 1920×1080 , 29.97P

Details

Video Encoding : Photo JPEG
Codec ID : qt
File size : 452 MiB
Duration : 25s 25ms
Overall bit rate mode : Variable
Overall bit rate : 152 Mbps

Video
Format : JPEG
Codec ID : jpeg
Duration : 25s 25ms
Bit rate mode : Variable
Bit rate : 150 Mbps
Width : 1 920 pixels
Height : 1 080 pixels
Display aspect ratio : 16:9
Frame rate mode : Constant
Frame rate : 29.970 fps
Color space : YUV
Chroma subsampling : 4:2:2
Bit depth : 8 bits
Compression mode : Lossy
Bits/(Pixel*Frame) : 2.415
Stream size : 448 MiB (99%)

Audio
Format : PCM
Format settings, Endianness : Little
Format settings, Sign : Signed
Codec ID : sowt
Duration : 25s 25ms
Bit rate mode : Constant
Bit rate : 1 536 Kbps
Channel(s) : 2 channels
Channel positions : Front: L R
Sampling rate : 48.0 KHz
Bit depth : 16 bits
Stream size : 4.58 MiB (1%)

Alpha Channel: No; Looped Video: No; Frame Rate: 29.97; Resolution: 1920x1080; Video Encoding: Photo JPEG; File Size: 452mb; Total Clip(s) Length: 0:25.

Lotus In Fish Pond 3; Giant Afican Snail 2; Big And Small Snail ; Giant Afican Snail 1; Small Snail Slow Walking; Snail Fast Walking 2; Snail Fast Walking.

Keywords: blossom, fish, fish ponds, flora, flower, fresh, garden, house, lotus, morning, nature, petal, pink, water.


Tags: lotus, ponds, nature, morning, water, house, petal

Create VideoHive Lotus In Fish Ponds 2 8366056 style with After Effect, Cinema 4D, 3DS Max, Apple Motion or PhotoShop. VideoHive Lotus In Fish Ponds 2 8366056 from creative professional designers. Full details of VideoHive Lotus In Fish Ponds 2 8366056 for digital design and education. VideoHive Lotus In Fish Ponds 2 8366056 desigen style information or anything related.